tarantolabus
» » Nicolette Larson - Nicolette

Nicolette Larson - Nicolette download flac

Nicolette Larson - Nicolette download flac

Performer: Nicolette Larson
Title: Nicolette
Released: 1991
Country: US
Style: Country Rock, Soft Rock
Category: Rock / Pop
Album rating: 4.5
Votes: 924
Size MP3: 1882 mb
Size FLAC: 1615 mb
Size WMA: 1475 mb
Other formats: VQF FLAC MOD DXD WAV AA MP3

Nicolette by Nicolette Larson was released by Warner Bros. It reached on the US pop charts and in Canada and was certified Gold in both markets. Her first charting single was Young's smoky composition "Lotta Love". As a single, it hit on Billboard's Adult Contemporary chart, on the Billboard Hot 100, on the Cash Box Top 100, and in Record World magazine

She went on to duet with him on his much anticipated Comes a Time album, which was the genesis for Nicolette. Using an even wider-ranging style than friends Linda Ronstadt or Emmylou Harris, Larson hit it big right out of the starting gate with Young's "Lotta Love," a super Top Ten smash

nicolette larson слушать онлайн. Прослушать Скачать 03:06. Прослушать Скачать 03:18. I Only Want To Be With You. Прослушать Скачать 03:14. Talk To Me. Прослушать Скачать 03:28. Прослушать Скачать 03:26. Прослушать Скачать 03:33. I Bid You Goodnight Album Version. Прослушать Скачать 03:56. You Send Me. Прослушать Скачать 03:17. Irish Lullaby Album Version. Прослушать Скачать 03:50. Прослушать Скачать 04:22. Прослушать Скачать 04:02. Прослушать Скачать 03:07.

Nicolette Larson ‎– Nicolette. Format: Vinyl, LP, Album, Los Angeles Pressing. Los Angeles pressing based on runout code.

Nicolette Larson in 1985. Background information. Interestingly, Nicolette Larson and Guthrie Thomas both worked with Hoyt Axton and recorded their first professional recording session together on Axton's "Southbound" album for A&M Records Larson's work with Emmylou Harris - the album Luxury Liner (1977) prominently showcased Larson on the cut "Hello Stranger" - led to her meeting Harr.

Listen to music from Nicolette Larson like Lotta Love, You Send Me & more. Find the latest tracks, albums, and images from Nicolette Larson. Nicolette Larson (July 17, 1952 – December 16, 1997) was an American singer best known for her cover version of Neil Young's "Lotta Love", which peaked at on Billboard Magazine's Hot 100 chart in February 1979. She sang backing vocals on the Van Halen song "Could This Be Magic?" and on Neil Young's recording of Ian Tyson's folk classic "Four Strong Winds".

Redirected from Nicolette Larsen). Nicolette Larson (July 17, 1952 – December 16, 1997) was an American pop singer. She is perhaps best known for her work in the late 1970s with Neil Young and her 1978 hit single of Neil Young's "Lotta Love," which hit No. 1 on the Hot Adult Contemporary Tracks chart and No. 8 on the Pop Singles chart. It was followed by four more adult contemporary hits, two of which were also minor pop hits.

Nicolette Larson - Love Hurts from the album "Shadows of Love" I personally really like this version along with Emmylou Harris's version who's another one of m. .Nicolette Larson - If I Didn't Love Youthe winner. Nicolette Larson - If I Didn't Love You - 1986 album - Rose Of My Heart. Nicolette Larson & Linda Ronstadt - You're Running Wildthe winner. Nicolette Larson - You're Running Wild - 1986 album - Rose Of My Heart. Come early mornin' (Nicolette Larson)Gianouno. Lullaby: The Moment I Saw You - Nicolette Larson/Graham Nashsnicky58.

Tracklist

1 Lotta Love 3:12
2 Rhumba Girl 3:53
3 You Send Me 3:57
4 Can't Get Away From You 3:18
5 Mexican Divorce 3:53
6 Baby, Don't You Do It 3:42
7 Give A Little 3:00
8 Angels Rejoiced 2:28
9 French Waltz 4:23
10 Come Early Mornin' 2:42
11 Last In Love 3:45

Companies, etc.

  • Made By – Warner Music Japan Inc.

Credits

  • Musician – Albert Lee, Andrew Love, Billy Payne*, Bob Glaub, Bobby LaKind, Chuck Findley, Dave Kalish*, Fred Tackett, Herb Pedersen, James Burton, Jim Horn, Klaus Voorman*, Lauren Wood, Mark Jordan, Mike McDonald*, Nicolette Larson, Patrick Simmons, Paul Barrère*, Plas Johnson, Rick Shlosser, Steve Madaio, Valerie Carter, Victor Feldman
  • Producer, Musician – Ted Templeman

Barcode and Other Identifiers

  • Barcode (Scanned): 4988014743341

Other versions

Category Artist Title (Format) Label Category Country Year
BSK 3243 Nicolette Larson Nicolette ‎(LP, Album, Win) Warner Bros. Records BSK 3243 US 1978
GM-200.2567 Nicolette Larson Nicolette ‎(LP, Album) Warner Bros. Records GM-200.2567 Venezuela 1978
208606 Nicolette Larson Nicolette ‎(LP, Album) Warner Bros. Records 208606 Argentina 1978
BSK 3243 Nicolette Larson Nicolette ‎(LP, Album) Warner Bros. Records BSK 3243 US 1978
BSK 3243 Nicolette Larson Nicolette ‎(LP, Album, Win) Warner Bros. Records BSK 3243 US 1978


Comments:

Fek
foobar2000 1.3.17 / Dynamic Range Meter 1.1.1log date: 2018-04-04 21:04:01--------------------------------------------------------------------------------Analyzed: Nicolette Larson / Nicolette--------------------------------------------------------------------------------DR Peak RMS Duration Track--------------------------------------------------------------------------------DR13 -1.52 dB -17.86 dB 3:12 01-Lotta LoveDR14 -0.75 dB -17.12 dB 3:53 02-Rhumba GirlDR13 -2.67 dB -17.63 dB 3:57 03-You Send MeDR13 -0.23 dB -15.78 dB 3:18 04-Can't Get Away From YouDR12 -2.89 dB -18.56 dB 3:53 05-Mexican DivorceDR13 -0.89 dB -16.12 dB 3:42 06-Baby, Don't You Do ItDR13 -3.39 dB -18.90 dB 3:00 07-Give A LittleDR13 -3.82 dB -21.28 dB 2:28 08-Angels RejoicedDR12 -3.99 dB -18.75 dB 4:23 09-French WaltzDR13 -2.73 dB -18.29 dB 2:42 10-Come Early Mornin'DR12 -6.16 dB -21.74 dB 3:45 11-Last In Love--------------------------------------------------------------------------------Number of tracks: 11Official DR value: DR13Samplerate: 44100 HzChannels: 2Bits per sample: 16Bitrate: 690 kbpsCodec: ALAC================================================================================

Related to Nicolette Larson - Nicolette

Carly Simon - Another Passenger download flac

Carly Simon - Another Passenger flac download

Released: 1976
Country: US
Style: Soft Rock, Pop Rock, Vocal
Little Feat - Kickin' It At The Barn download flac

Little Feat - Kickin' It At The Barn flac download

Released: 2003
Country: US
Style: Pop Rock, Folk Rock, Blues Rock
Various - Made For You - The West Coast Collection download flac

Various - Made For You - The West Coast Collection flac download

Released: 1993
Style: Soft Rock, Pop Rock, Country Rock, Classic Rock
Rita Coolidge - Heartbreak Radio download flac

Rita Coolidge - Heartbreak Radio flac download

Released: 1981
Country: Netherlands
Style: Country Rock, Pop Rock, Ballad
Various - Arthur - The Album download flac

Various - Arthur - The Album flac download

Released: 1981
Country: UK
Style: Soundtrack, Soft Rock, Ballad
Various - Rainbow download flac

Various - Rainbow flac download

Released: 1980
Country: Canada