tarantolabus
» » Richie Furay - Dance A Little Light

Richie Furay - Dance A Little Light download flac

Richie Furay - Dance A Little Light download flac

Performer: Richie Furay
Title: Dance A Little Light
Released: 1991
Country: US
Category: Pop
Album rating: 4.7
Votes: 393
Size MP3: 1954 mb
Size FLAC: 1218 mb
Size WMA: 1585 mb
Other formats: MMF APE DTS AAC TTA AIFF MP3

I've Got a Reason is the debut solo album by American singer-songwriter Richie Furay, released in 1976. After leaving Poco in 1974 and the country rock supergroup y Band, Furay released his first solo album which reflected Furay's newfound Christian beliefs. He formed The Richie Furay Band with Jay Truax, John Mehler, and Tom Stipe. To support the release of this album Furay formed an alliance with David Geffen and Asylum Records

Shoutin' about it, there's reasons enough to be Honey, honey, you'll see No doubt about it, it's easy what I'm gonna do Oh, dance a little light on you. You can live forever, forever and a day Just say it whenever, ain't no takin' it away. Oh, I believe you hear me callin' Sounds a bit like good news Oh, it'll dance a little light on you. Oh, it'll dance a little light on you. You can live forever, forever and a day Just say it whenever, ain't no takin' it away

More Albums by Richie Furay. Dance a Little Light. Verified: 1. Artist: Richie Furay.

Dance a Little Light. Though recorded by what was technically a Christian rock group, the Richie Furay band's Dance a Little Light is a far cry from the heavy-handed, musically inept evangelizing often associated with the genre. Despite his then-recent born-again status, Furay was still the same guy who played a pivotal role in two of the most important and influential country-rock bands of all time, Poco and Buffalo Springfield.

Album by Richie Furay. You Better Believe It. Stand Your Guard. MusicBrainz: Dance A Little Light.

Dance A Little Light '1978. 1. (00:03:52) Furay, Richie - It's Your Love. 2. (00:02:49) Furay, Richie - Your Friends. 3. (00:05:09) Furay, Richie - Ooh Dreamer. 4. (00:03:14) Furay, Richie - Yesterday's Gone. 5. (00:03:53) Furay, Richie - Someone Who Cares. Your browser does not support the audio element.

Tracklist

1 It's Your Love 3:50
2 Your Friends 2:45
3 Ooh Dreamer 5:06
4 Yesterday's Gone 3:13
5 Someone Who Cares 3:50
6 Dance A Little Light 2:55
7 This Magic Moment 3:06
8 Bittersweet Love 3:45
9 You Better Believe It 2:55
10 Stand Your Guard 8:10

Companies, etc.

  • Manufactured By – Warner-Pioneer Corporation
  • Licensed From – Warner Bros. Records (Japan) Inc.
  • Phonographic Copyright (p) – WEA International Inc.

Credits

  • Bass – Billy Batstone*
  • Drums – John Mehler
  • Guitar, Vocals – Richie Furay, Virgil Beckham
  • Keyboards – Gabriel Katona
  • Producer – Jim Mason
  • Saxophone – Jim Coile, Jim Horn
  • Trombone – Jack Redman*
  • Trumpet – Chuck Findlay*, Steve Madaio

Other versions

Category Artist Title (Format) Label Category Country Year
6E-115 Richie Furay Dance A Little Light ‎(LP, Album) Asylum Records 6E-115 US 1978
6E-115 Richie Furay Dance A Little Light ‎(LP, Album, Promo) Asylum Records 6E-115 US 1978
WOU 115 Richie Furay Dance A Little Light ‎(CD, Album) Wounded Bird Records WOU 115 US 2003
TC-5115 Richie Furay Dance A Little Light ‎(Cass, Album) Asylum Records TC-5115 US 1978
6E-115 Richie Furay Dance A Little Light ‎(LP, Album, Com) Asylum Records 6E-115 US 1978


Comments:

Defolosk
foobar2000 1.3.17 / Dynamic Range Meter 1.1.1log date: 2019-01-05 16:36:43--------------------------------------------------------------------------------Analyzed: Richie Furay / Dance A Little Light [JP 1991 CD]--------------------------------------------------------------------------------DR Peak RMS Duration Track--------------------------------------------------------------------------------DR15 -0.22 dB -16.43 dB 3:54 01-It's Your LoveDR15 -0.40 dB -17.82 dB 2:51 02-Your FriendsDR16 -0.20 dB -18.97 dB 5:10 03-Ooh DreamerDR16 -0.20 dB -18.87 dB 3:16 04-Yesterdays GoneDR15 -0.40 dB -17.77 dB 3:55 05-Someone Who CaresDR14 -0.42 dB -16.66 dB 2:56 06-Dance A Little LightDR14 -0.80 dB -18.61 dB 3:06 07-This Magic MomentDR14 -0.20 dB -17.87 dB 3:49 08-Bittersweet LoveDR14 -0.40 dB -16.51 dB 2:56 09-You Better BelieveDR14 -0.20 dB -16.04 dB 8:11 10-Stand Your Guard--------------------------------------------------------------------------------Number of tracks: 10Official DR value: DR15Samplerate: 44100 HzChannels: 2Bits per sample: 16Bitrate: 897 kbpsCodec: ALAC================================================================================

Related to Richie Furay - Dance A Little Light

David Lee Roth - Skyscraper download flac

David Lee Roth - Skyscraper flac download

Released: 1988
Country: US
Style: Hard Rock
Jim Messina - Watching The River Run download flac

Jim Messina - Watching The River Run flac download

Released: 1997
Country: UK
Style: Country Rock
Little Feat - Let It Roll download flac

Little Feat - Let It Roll flac download

Released: 1988
Country: Europe
Style: Rock & Roll, Cajun, Pop Rock
Various - St. Elmo's Fire - Original Motion Picture Soundtrack download flac

Various - St. Elmo's Fire - Original Motion Picture Soundtrack flac download

Released: 1985
Country: US
Style: Soundtrack, Pop Rock, Synth-pop
Richie Furay - I Am Sure download flac

Richie Furay - I Am Sure flac download

Released: 2005
Style: Country Rock
John Lennon - Imagine - John Lennon download flac

John Lennon - Imagine - John Lennon flac download

Released: 1989
Country: US
Style: Soundtrack, Rock & Roll, Beat, Pop Rock