tarantolabus
» » Al Di Meola - The Infinite Desire

Al Di Meola - The Infinite Desire download flac

Al Di Meola - The Infinite Desire download flac

Performer: Al Di Meola
Title: The Infinite Desire
Released: 1998
Country: US
Style: Fusion
Category: Jazz
Album rating: 4.2
Votes: 491
Size MP3: 1147 mb
Size FLAC: 1267 mb
Size WMA: 1550 mb
Other formats: VQF ASF DXD ADX DTS APE AC3

Electric Guitar, Guitar, Acoustic Guitar, Marimba, Cymbal – Al Di Meola. 4. In My Mother's Eyes (Memory Of Theresa). Acoustic Guitar – Al Di Meola. 5. The Infinite Desire.

Band Name Al Di Meola. Album Name The Infinite Desire. 10. Race with Devil on Turkish Highway. 12. The Infinite Desire (Vocals). Other productions from Al Di Meola. Pursuit of Radical Rhapsody. Diabolic Inventions and Seduction for Solo Guitar.

The Infinite Desire is an album by jazz guitarist Al Di Meola that was released in 1998. All songs by Al Di Meola unless otherwise noted. Beyond the Mirage" – 7:18. Shaking the Spirits" – 6:30. In My Mother's Eyes (Memory of Theresa)" – 4:41. The Infinite Desire" (Al Di Meola, Pino Daniele) – 5:26. Invention of the Monsters" – 3:06. Big Sky Azzura" – 6:07. Race with Devil on Turkish Highway" – 4:03.

Tracklist: 1. Beyond The Mirage, 2. Shaking The Spirits, 3. Vizzini, 4. In My Mother’s Eyes (Memory Of Theresa), 5. The Infinite Desire, 6. Invention Of The Monsters, 7. Istanbul, 8. Azzura, 9. Big Sky Azzura, 10. Race With Devil On Turkish Highway, 11. Valentina. 1. Beyond The Mirage. 2. Shaking The Spirits. In My Mother’s Eyes (Memory Of Theresa). 6. Invention Of The Monsters.

Only for completionists (6%). Infinite Desire is an album that mixes World Music with Al Di Meola's virtuoso guitar playing. Unlike his World Sinfonia project, the present album is not acoustic. We get both electric and acoustic guitars here, and as always with Di Meola they are played exceptionally well.

This album has an average beat per minute of 111 BPM (slowest/fastest tempos: 81/157 BPM). See its BPM profile at the bottom of the page. Tracklist The Infinite Desire. BPM Profile The Infinite Desire. Album starts at 107BPM, ends at 118BPM (+11), with tempos within the -BPM range. Try refreshing the page if dots are missing). Recent albums by Al Di Meola.

Winter Nights is an album by jazz guitarist Al Di Meola. Zima" (Al di Meola) – 4:05. Carol of the Bells" – 4:11. Winterlude Duet No. 1" (Roman Hrynkiv, Al di Meola) – 1:27. Greensleeves" (Traditional) – 2:46. Mercy Street" (Peter Gabriel) – 4:52. Have Yourself a Merry Little Christmas" (Ralph Blane, Hugh Martin) – 4:32. Winterlude No. 2" (Roman Hrynkiv) – 0:51. Midwinter Nights" (Al di Meola) – 4:50. Scarborough Fair" (Traditional) – 4:36. 3" (Roman Hrynkiv) – 0:47.

Digital Download - Telarc Jazz Zone, Telarc, Telarc Distribution Overview .

Tracklist

Beyond The Mirage 7:18
Shaking The Spirits 6:30
Vizzini 4:54
In My Mother's Eyes (Memory Of Theresa) 4:41
The Infinite Desire 5:26
Invention Of The Monsters 7:18
Istanbul 8:00
Azzura 2:55
Big Sky Azzura 6:07
Race With Devil On Turkish Highway 4:03
Valentina 4:44
The Infinite Desire 5:27

Versions

Category Artist Title (Format) Label Category Country Year
CD-83433 Al Di Meola The Infinite Desire ‎(CD, Album) Telarc CD-83433 US 1998
CD-83433 Al Di Meola The Infinite Desire ‎(CD, Album) Telarc CD-83433 US 1998
PHCD-1572 Al Di Meola The Infinite Desire ‎(CD, Album) Telarc PHCD-1572 Japan 1998
CD-83433 Al Di Meola The Infinite Desire ‎(CD, Album, Club) Telarc CD-83433 US 1998
CD-83433 Al Di Meola The Infinite Desire ‎(CD, Album, Promo) Telarc CD-83433 US 1998
CD-83433 Al Di Meola The Infinite Desire ‎(CD, Album, Unofficial) Telarc CD-83433 Russia 1998
WT-899 Al Di Meola The Infinite Desire ‎(Cass, Album, Unofficial) Western Thunder Records WT-899 Ukraine 1998
Z 1278 Al Di Meola The Infinite Desire ‎(CD, Album, Unofficial) Not On Label (Al Di Meola) Z 1278 Russia Unknown


Comments:

Malien
foobar2000 1.3.17 / Dynamic Range Meter 1.1.1log date: 2018-07-14 14:20:27--------------------------------------------------------------------------------Analyzed: Al Di Meola / The Infinite Desire--------------------------------------------------------------------------------DR Peak RMS Duration Track--------------------------------------------------------------------------------DR7 -0.07 dB -9.01 dB 7:20 01-Beyond The MirageDR6 -0.07 dB -9.00 dB 6:31 02-Shaking The SpiritsDR7 0.00 dB -9.82 dB 4:56 03-VizziniDR11 0.00 dB -13.58 dB 4:42 04-In My Mother's Eyes (Memory Of Theresa)DR7 -0.07 dB -8.90 dB 5:29 05-The Infinite DesireDR10 -0.07 dB -12.40 dB 3:06 06-Invention Of The MonstersDR6 -0.07 dB -8.94 dB 8:01 07-IstanbulDR8 0.00 dB -10.56 dB 2:55 08-AzzuraDR7 0.00 dB -8.98 dB 6:07 09-Big Sky AzzuraDR7 0.00 dB -8.71 dB 4:05 10-Race With Devil On Turkish HighwayDR9 0.00 dB -11.13 dB 4:47 11-ValentinaDR7 -0.20 dB -9.16 dB 5:27 12-The Infinite Desire (Vocal)--------------------------------------------------------------------------------Number of tracks: 12Official DR value: DR8Samplerate: 44100 HzChannels: 2Bits per sample: 16Bitrate: 907 kbpsCodec: ALAC================================================================================

Related to Al Di Meola - The Infinite Desire

Al Di Meola, World Sinfonia - La Melodia (Live In Milano) download flac

Al Di Meola, World Sinfonia - La Melodia (Live In Milano) flac download

Released: 2008
Style: Latin Jazz, Contemporary Jazz
Infinite Third - Swamp Master download flac

Infinite Third - Swamp Master flac download

Released: 2014
Country: US
Style: Ambient, Drone, Shoegaze, Experimental
D-Fener - Infinite Leaps download flac

D-Fener - Infinite Leaps flac download

Released: 2011
Style: Jumpstyle, Hardstyle
Soilwork - Beyond The Infinite download flac

Soilwork - Beyond The Infinite flac download

Released: 2014
Country: Japan
Style: Death Metal
Alerticus - Infinite Ladder download flac

Alerticus - Infinite Ladder flac download

Released: 2014
Style: Ambient